+ Reply to Thread
Results 1 to 1 of 1
  1. #1
    Administrators Duckload.us's Avatar
    Join Date
    Dec 2010
    Posts
    94,372
    Thanks
    9
    Thanked 96,769 Times in 46,545 Posts

    Question (จีน )-S.M.A.R.T CHASE (2017) .mkv 720p-WEB-DL.H.264.[Modifide][Sound: Thai Ac3][SUB: Eng]



    Danny Stratton ผู้ให้บริการรักษาความปลอดภัยเอกชนได้รับโอกาสที่หาไ ด้ยากเพื่อคุ้มกันวัตถุโบราณอันทรงคุณค่าของจีนออกจา กเซี่ยงไฮ้ แต่ถูกซุ่มโจมตีระหว่างเดินทาง เมื่อผู้หญิงที่เขารักตกอยู่ในอันตรายแดนนีต้องทำงาน ร่วมกับทีมรักษาความปลอดภัยของเขาในการช่วยเธอให้รอด พ้นจากการถูกลักพาตัว

    S.M.A.R.T CHASE (2017)ดูหนัง S.M.A.R.T Chase (2017) [Full-HD].mkv
    Format : Matroska
    Format version : Version 2
    File size : 1.41 GiB
    Duration : 1 h 33 min
    Overall bit rate : 2 153 kb/s
    Encoded date : UTC 2018-10-07 19:44:23

    Video
    ID : 1
    Format : AVC
    Format/Info : Advanced Video Codec
    Format profile : [email protected]
    Format settings : 1 Ref Frames
    Format settings, CABAC : No
    Format settings, ReFrames : 1 frame
    Format settings, GOP : M=1, N=12
    Codec ID : V_MPEG4/ISO/AVC
    Duration : 1 h 33 min
    Bit rate : 1 982 kb/s
    Width : 1 280 pixels
    Height : 720 pixels
    Display aspect ratio : 2.40:1
    Original display aspect rat : 2.40:1
    Frame rate mode : Constant
    Frame rate : 23.976 (24000/1001) FPS
    Color space : YUV
    Chroma subsampling : 4:2:0
    Bit depth : 8 bits
    Scan type : Progressive
    Bits/(Pixel*Frame) : 0.090
    Stream size : 1.30 GiB (92%)
    Language : English
    Default : No
    Forced : No

    Audio
    ID : 2
    Format : AC-3
    Format/Info : Audio Coding 3
    Commercial name : Dolby Digital
    Codec ID : A_AC3
    Duration : 1 h 33 min
    Bit rate mode : Constant
    Bit rate : 128 kb/s
    Channel(s) : 2 channels
    Channel layout : L R
    Sampling rate : 44.1 kHz
    Frame rate : 28.711 FPS (1536 SPF)
    Bit depth : 16 bits
    Compression mode : Lossy
    Stream size : 85.8 MiB (6%)
    Language : Thai
    Service kind : Complete Main
    Default : No
    Forced : Yes

    Text
    ID : 3
    Format : UTF-8
    Codec ID : S_TEXT/UTF8
    Codec ID/Info : UTF-8 Plain Text
    Language : English
    Default : Yes
    Forced : No






    Download: cornfile
    http://cornfile.com/obphlh8seq3v
    Download: mekafile
    http://www.mekafile.com/dl.php?f=X7ef00bL9mff

  2. The Following User Says Thank You to Duckload.us For This Useful Post:

    smakha (10-11-2018)

+ Reply to Thread

Thread Information

Users Browsing this Thread

There are currently 1 users browsing this thread. (0 members and 1 guests)

     

Posting Permissions

  • You may not post new threads
  • You may not post replies
  • You may not post attachments
  • You may not edit your posts