+ Reply to Thread
Results 1 to 4 of 4
  1. #1
    Administrators Duckload.us's Avatar
    Join Date
    Dec 2010
    Posts
    94,116
    Thanks
    9
    Thanked 96,586 Times in 46,448 Posts

    Question [ฝรั่ง]-[ใหม่ ภาพมาสเตอร์!] The Darkest Minds (2018) ดาร์กเกสท์ มายด์ส จิตทมิฬ #[เสียงไทยโรงครบ!] : [พากย์ไทยโรง 2.0 + เสียงอังกฤษ 5.1] : [บรรยายอังกฤษ] : [1080p WEB-DL] : [Modified]



    The Darkest Minds (2018) ดาร์กเกสท์ มายด์ส จิตทมิฬ
    #เรื่องย่อ : เรื่องราวของเหล่าวัยรุ่นที่เกิดพัฒนาความสามารถใหม่ อันทรงพลังขึ้นมาได้อย่างลึกลับ และพวกเขาได้ถูกทางรัฐบาลข่มขู่คุกคามและถูกคุมขัง รูบี้ สาวน้อยวัย 16 ปี หนึ่งในวัยรุ่นที่ทรงพลังที่สุดเท่าที่ทุกคนเคยเจอมา ได้หนีออกจากค่ายและเข้าร่วมกับกลุ่มวัยรุ่นผู้หลบหน ีคนอื่น ๆ เพื่อตามหาที่หลบภัย จนได้พบครอบครัวใหม่ และในไม่ช้าพวกเขาก็ได้พบว่า ในโลกที่ผู้ใหญ่ซึ่งมีอำนาจต่างหักหลังพวกเขา การหลบหนีนั้นไม่เพียงพอ พวกเขาต้องเดิมพันต่อต้าน และใช้พลังที่รวบรวมมาเพื่อทวงคืนสิทธิในการควบคุมอน าคตของตนเอง !!!

    Video
    ID : 1
    Format : AVC
    Format/Info : Advanced Video Codec
    Format profile : [email protected]
    Format settings : CABAC / 5 Ref Frames
    Format settings, CABAC : Yes
    Format settings, RefFrames : 5 frames
    Codec ID : V_MPEG4/ISO/AVC
    Duration : 1 h 44 min
    Bit rate : 4 537 kb/s
    Width : 1 920 pixels
    Height : 804 pixels
    Display aspect ratio : 2.40:1
    Frame rate mode : Constant
    Frame rate : 23.976 FPS
    Color space : YUV
    Chroma subsampling : 4:2:0
    Bit depth : 8 bits
    Scan type : Progressive
    Bits/(Pixel*Frame) : 0.123
    Stream size : 3.31 GiB (89%)
    Title : The.Darkest.Minds.2018.1080p.WEB-DL.x264.AC3.THR2.0_Scarlett98
    Language : English
    Default : Yes
    Forced : No
    Color range : Limited
    Color primaries : BT.709
    Transfer characteristics : BT.709
    Matrix coefficients : BT.709

    Audio #1
    ID : 2
    Format : AC-3
    Format/Info : Audio Coding 3
    Codec ID : A_AC3
    Duration : 1 h 44 min
    Bit rate mode : Constant
    Bit rate : 192 kb/s
    Channel(s) : 2 channels
    Channel positions : Front: L R
    Sampling rate : 48.0 kHz
    Frame rate : 31.250 FPS (1536 SPF)
    Bit depth : 16 bits
    Compression mode : Lossy
    Stream size : 144 MiB (4%)
    Title : Thai Rong 2.0 Modified By Scarlett98
    Language : Thai
    Service kind : Complete Main
    Default : Yes
    Forced : No

    Audio #2
    ID : 3
    Format : AC-3
    Format/Info : Audio Coding 3
    Codec ID : A_AC3
    Duration : 1 h 43 min
    Bit rate mode : Constant
    Bit rate : 384 kb/s
    Channel(s) : 6 channels
    Channel positions : Front: L C R, Side: L R, LFE
    Sampling rate : 48.0 kHz
    Frame rate : 31.250 FPS (1536 SPF)
    Bit depth : 16 bits
    Compression mode : Lossy
    Stream size : 285 MiB (7%)
    Title : English 5.1
    Language : English
    Service kind : Complete Main
    Default : No
    Forced : No

    Text
    ID : 4
    Format : UTF-8
    Codec ID : S_TEXT/UTF8
    Codec ID/Info : UTF-8 Plain Text
    Duration : 1 h 36 min
    Bit rate : 52 b/s
    Count of elements : 1372
    Stream size : 37.1 KiB (0%)
    Title : English SRT
    Language : English
    Default : Yes
    Forced : No

    #Menu
    00:00:00.000 : en:Chapter 01
    00:03:52.357 : en:Chapter 02
    00:09:39.037 : en:Chapter 03
    00:14:32.747 : en:Chapter 04
    00:19:25.956 : en:Chapter 05
    00:23:34.536 : en:Chapter 06
    00:26:23.161 : en:Chapter 07
    00:30:49.927 : en:Chapter 08
    00:35:34.336 : en:Chapter 09
    00:41:20.557 : en:Chapter 10
    00:47:21.917 : en:Chapter 11
    00:51:47.306 : en:Chapter 12
    00:55:54.219 : en:Chapter 13
    00:59:31.811 : en:Chapter 14
    01:03:32.676 : en:Chapter 15
    01:08:39.606 : en:Chapter 16
    01:12:13.236 : en:Chapter 17
    01:14:10.435 : en:Chapter 18
    01:18:00.789 : en:Chapter 19
    01:20:53.502 : en:Chapter 20
    01:23:26.987 : en:Chapter 21
    01:26:55.862 : en:Chapter 22
    01:29:23.967 : en:Chapter 23
    01:37:58.939 : en:Chapter 24





    Download: cornfile
    http://cornfile.com/mxrs9jo7ud0e
    Download: mekafile
    http://www.mekafile.com/dl.php?f=dE14a7bLc6VM

  2. The Following 3 Users Say Thank You to Duckload.us For This Useful Post:

    gozilla02 (Yesterday), prasert.pp (Today), Wesker_TOT (10-12-2018)

  3. #2
    Senior Member
    Join Date
    Oct 2013
    Posts
    1,226
    Thanks
    0
    Thanked 0 Times in 0 Posts
    ขอบคุณครับ

  4. #3
    Senior Member
    Join Date
    Jun 2014
    Posts
    274
    Thanks
    0
    Thanked 0 Times in 0 Posts
    ขอบคุณครับ

  5. #4
    Senior Member gozilla02's Avatar
    Join Date
    Jul 2012
    Posts
    184
    Thanks
    70
    Thanked 1 Time in 1 Post
    ขอบคุณครับ
    http://rabbitfileloveav.blogspot.com/ โหลดหนัง AV 18+ใหม่ล่าสุด อัพเดตทุกวัน มีทุกแนว 1080P Cornfile 10000 เรื่อง

+ Reply to Thread

Thread Information

Users Browsing this Thread

There are currently 1 users browsing this thread. (0 members and 1 guests)

     

Posting Permissions

  • You may not post new threads
  • You may not post replies
  • You may not post attachments
  • You may not edit your posts